ilclubdei39.org

Sterminate la gang! (1950) WEB-DL

Armored Car Robbery    

PASSED 67 min CrimeFilm Noir

7.0
IMDB: 7.0/10 1,624 votes

, , , , , , , , ,

1 nomination.

USA

486

Report error

Dave Purvis, noto nell’ambiente della malavita come esperto “pianificatore” di rapine, si vanta di averla sempre fatta franca. Ma viene il giorno in cui un colpo, da lui messo a punto nei minimi dettagli, fallisce: un poliziotto e due dei tre complici di Purvis perdono la vita. Il tenente Jim Cordell, amico dell’agente ucciso, tallona i superstiti, mentre Purvis si nasconde portando con sé il malloppo: il suo progetto di fuga sembra funzionare, ma presenta qualche piccolo difetto…

INFO

General
Complete name : Sterminate.La.Gang.1950.ITA-ENG.WEB-DL.1080p.x264-SG.mkv
Format : Matroska
Format version : Version 4
File size : 2.24 GiB
Duration : 1 h 7 min
Overall bit rate : 4 738 kb/s
Movie name : Armored.Car. Robbery.1950.by.ilclubdei39.org
Encoded date : UTC 2019-12-13 16:52:06
Writing application : mkvmerge v40.0.0 (‘Old Town Road + Pony’) 64-bit
Writing library : libebml v1.3.9 + libmatroska v1.5.2

Video
ID : 1
Format : AVC
Format/Info : Advanced Video Codec
Format profile : High@L4
Format settings : CABAC / 5 Ref Frames
Format settings, CABAC : Yes
Format settings, Reference frames : 5 frames
Codec ID : V_MPEG4/ISO/AVC
Duration : 1 h 7 min
Bit rate : 4 355 kb/s
Width : 1 470 pixels
Height : 1 076 pixels
Display aspect ratio : 4:3
Frame rate mode : Constant
Frame rate : 23.976 FPS
Color space : YUV
Chroma subsampling : 4:2:0
Bit depth : 8 bits
Scan type : Progressive
Bits/(Pixel*Frame) : 0.115
Stream size : 2.05 GiB (92%)
Language : English
Default : Yes
Forced : No
Color range : Limited
Color primaries : BT.709
Transfer characteristics : BT.709
Matrix coefficients : BT.709

Audio #1
ID : 2
Format : AC-3
Format/Info : Audio Coding 3
Commercial name : Dolby Digital
Codec ID : A_AC3
Duration : 1 h 7 min
Bit rate mode : Constant
Bit rate : 192 kb/s
Channel(s) : 2 channels
Channel layout : L R
Sampling rate : 48.0 kHz
Frame rate : 31.250 FPS (1536 SPF)
Compression mode : Lossy
Stream size : 92.8 MiB (4%)
Title : ITA AC3 2.0 192 Kbps mux by Legend43
Language : Italian
Service kind : Complete Main
Default : Yes
Forced : No

Audio #2
ID : 3
Format : AC-3
Format/Info : Audio Coding 3
Commercial name : Dolby Digital
Codec ID : A_AC3
Duration : 1 h 7 min
Bit rate mode : Constant
Bit rate : 192 kb/s
Channel(s) : 2 channels
Channel layout : L R
Sampling rate : 48.0 kHz
Frame rate : 31.250 FPS (1536 SPF)
Compression mode : Lossy
Stream size : 92.7 MiB (4%)
Title : ENG AC3 2.0 192 Kbps
Language : English
Service kind : Complete Main
Default : No
Forced : No

Text
ID : 4
Format : UTF-8
Codec ID : S_TEXT/UTF8
Codec ID/Info : UTF-8 Plain Text
Duration : 1 h 6 min
Bit rate : 62 b/s
Count of elements : 775
Stream size : 30.1 KiB (0%)
Title : English Regular
Language : English
Default : No
Forced : No

Menu
00:00:00.000 : en:1.
00:10:00.000 : en:2.
00:20:00.000 : en:3.
00:30:00.000 : en:4.
00:40:00.000 : en:5.
00:50:00.000 : en:6.
01:00:00.000 : en:7.

Sterminate la gang! (1950) WEB-DL
Sterminate la gang! (1950) WEB-DL
Sterminate la gang! (1950) WEB-DL
No links available
No downloads available

Lascia un commento

61 Comments

ATTENZIONE! CONTENUTO PROTETTO
Lasciate un messaggio su questo articolo per accedere ai link.
I collegamenti verranno visualizzati automaticamente una volta pubblicato il commento

Related movies